<?xml version="1.0" standalone="no"?>
<!DOCTYPE svg PUBLIC "-//W3C//DTD SVG 1.1//EN" "http://www.w3.org/Graphics/SVG/1.1/DTD/svg11.dtd" >
<svg>
<metadata>
Created by FontForge 20090914 at Thu Sep 10 01:48:06 2015
 By www-data
Copyright afrojet 2009
</metadata>
<defs>
<font id="Detroit-Bold" horiz-adv-x="980" >
  <font-face 
    font-family="Detroit"
    font-weight="400"
    font-stretch="normal"
    units-per-em="2048"
    panose-1="0 0 5 0 0 0 0 0 0 0"
    ascent="1638"
    descent="-410"
    x-height="819"
    cap-height="1114"
    bbox="-66 -377 1843 1343"
    underline-thickness="102"
    underline-position="-102"
    unicode-range="U+0020-U+FB04"
  />
<missing-glyph horiz-adv-x="458" 
 />
    <glyph glyph-name=".notdef" horiz-adv-x="458" 
 />
    <glyph glyph-name="space" unicode=" " horiz-adv-x="303" 
 />
    <glyph glyph-name="exclam" unicode="!" horiz-adv-x="407" 
d="M90 0h227v178h-227v-178zM90 244h227v870h-227v-870z" />
    <glyph glyph-name="quotedbl" unicode="&#x22;" horiz-adv-x="636" 
d="M90 1114l21 -328h170l20 328h-211zM334 1114l20 -328h172l21 328h-213z" />
    <glyph glyph-name="numbersign" unicode="#" horiz-adv-x="1089" 
d="M78 279v182h149l37 201h-184v178h217l51 274h187l-52 -276h217l52 276h186l-51 -278h125v-183h-158l-37 -198l193 -2v-179h-226l-51 -274h-186l51 276h-217l-51 -276h-187l52 279h-117zM414 459l217 -2l37 198l-217 2z" />
    <glyph glyph-name="dollar" unicode="$" horiz-adv-x="933" 
d="M59 164l164 -164h131v-164h226v164h131l163 164v336l-163 164h-394l-32 32v199l32 33h299l33 -33v-117h225v172l-163 164h-131v164h-226v-164h-131l-164 -164v-317l164 -164h393l33 -33v-217l-33 -33h-299l-32 33v117h-226v-172z" />
    <glyph glyph-name="percent" unicode="%" horiz-adv-x="1228" 
d="M90 745l131 -131h238l131 131v238l-131 131h-238l-131 -131v-238zM94 104l979 981l82 -86l-977 -979zM207 805v121l72 71h120l74 -71v-121l-74 -74h-120zM655 131l131 -131h238l131 131v238l-131 131h-238l-131 -131v-238zM774 188v121l72 74h121l71 -74v-121l-71 -71
h-121z" />
    <glyph glyph-name="ampersand" unicode="&#x26;" horiz-adv-x="997" 
d="M74 164l164 -164h323l111 111l104 -111h164v172h-72l-67 68l65 61h72v170h-170l-98 -94l-189 201h99l131 131v241l-164 164h-309l-164 -164v-241l98 -99l-98 -98v-348zM279 780v97l65 65h98l66 -65v-97l-66 -65h-98zM285 238v233l16 16l242 -241l-88 -74h-105z" />
    <glyph glyph-name="quotesingle" unicode="'" horiz-adv-x="391" 
d="M90 1114l21 -328h170l20 328h-211z" />
    <glyph glyph-name="parenleft" unicode="(" horiz-adv-x="485" 
d="M82 -61v1265l131 131h195v-153h-66l-33 -33v-1155l33 -33h66v-154h-195z" />
    <glyph glyph-name="parenright" unicode=")" horiz-adv-x="485" 
d="M78 -39h65l33 33v1155l-33 33h-65v161h194l131 -131v-1282l-131 -131h-194v162z" />
    <glyph glyph-name="asterisk" unicode="*" horiz-adv-x="641" 
d="M53 1018l33 96l190 -74l-6 207h101l-6 -205l190 72l33 -96l-195 -57l131 -144l-80 -67l-125 159l-124 -159l-78 67l129 141z" />
    <glyph glyph-name="comma" unicode="," horiz-adv-x="325" 
d="M-66 0v-164h129l164 164v178h-227v-145l-33 -33h-33z" />
    <glyph glyph-name="period" unicode="." horiz-adv-x="407" 
d="M90 0h227v178h-227v-178z" />
    <glyph glyph-name="slash" unicode="/" horiz-adv-x="714" 
d="M135 -84l293 1380h197l-293 -1380h-197z" />
    <glyph glyph-name="zero" unicode="0" 
d="M82 164l164 -164h489l164 164v786l-164 164h-489l-164 -164v-786zM309 219v676l33 33h297l33 -33v-676l-33 -33h-297z" />
    <glyph glyph-name="one" unicode="1" horiz-adv-x="489" 
d="M74 858h102v-858h223v1112h-223l-102 -102v-152z" />
    <glyph glyph-name="two" unicode="2" horiz-adv-x="956" 
d="M70 0h817v186h-590v88l590 388v288l-164 164h-490l-163 -164v-153h227v98l33 33h297l32 -33v-141l-589 -385v-369z" />
    <glyph glyph-name="three" unicode="3" horiz-adv-x="944" 
d="M53 164l164 -164h490l163 164v274l-98 99l98 98v315l-163 164h-490l-164 -164v-145h228v90l32 33h297l33 -33v-215l-33 -33h-274v-188h274l33 -33v-207l-33 -33h-297l-32 33v90h-228v-145z" />
    <glyph glyph-name="four" unicode="4" horiz-adv-x="999" 
d="M61 293h543v-293h227v293h127v192h-127v629h-227v-629h-254l-80 -67l203 698h-227l-183 -618h-2v-205z" />
    <glyph glyph-name="five" unicode="5" horiz-adv-x="964" 
d="M74 164l164 -164h489l164 164v405l-164 164h-360l-66 -65v260h578v186h-805v-635h162l65 66h330l33 -33v-293l-33 -33h-297l-33 33v90h-227v-145z" />
    <glyph glyph-name="six" unicode="6" horiz-adv-x="964" 
d="M82 164l164 -164h489l164 164v368l-164 164h-360l-66 -65v264l33 33h297l33 -33v-88h227v143l-164 164h-489l-164 -164v-786zM309 219v291h330l33 -33v-258l-33 -33h-297z" />
    <glyph glyph-name="seven" unicode="7" horiz-adv-x="866" 
d="M41 928h549l-340 -486v-442h227l4 406l344 497v211h-784v-186z" />
    <glyph glyph-name="eight" unicode="8" horiz-adv-x="964" 
d="M74 164l164 -164h489l164 164v274l-98 99l98 98v315l-164 164h-489l-164 -164v-315l98 -98l-98 -99v-274zM301 211v215l33 33h297l33 -33v-215l-33 -33h-297zM301 680v215l33 33h297l33 -33v-215l-33 -33h-297z" />
    <glyph glyph-name="nine" unicode="9" horiz-adv-x="972" 
d="M74 164l164 -164h489l164 164v786l-164 164h-489l-164 -164v-368l178 -164h346l66 65v-264l-33 -33h-297l-33 33v88h-227v-143zM301 637v258l33 33h297l33 -33v-291h-330z" />
    <glyph glyph-name="less" unicode="&#x3c;" horiz-adv-x="641" 
d="M45 557l324 -557h227l-324 557l324 557h-227z" />
    <glyph glyph-name="greater" unicode="&#x3e;" horiz-adv-x="641" 
d="M45 0h227l324 557l-324 557h-227l324 -557z" />
    <glyph glyph-name="question" unicode="?" horiz-adv-x="964" 
d="M74 721h227v174l33 33h297l33 -33v-250l-33 -33h-197l-65 -65v-303h227v182h131l164 164v360l-164 164h-489l-164 -164v-229zM369 0h227v178h-227v-178z" />
    <glyph glyph-name="at" unicode="@" horiz-adv-x="1732" 
d="M90 410c0 140.667 33.501 270.999 100.501 390.999s160.167 215.833 279.5 287.5s251.333 107.5 396 107.5c218.667 0 402.334 -77.167 551.001 -231.5s223.667 -339.166 225 -554.499c0 -118.667 -24.833 -220 -74.5 -304s-109 -139.667 -178 -167
s-140.333 -29.166 -214 -5.49902s-132.5 74.5 -176.5 152.5l-98 -66h-342l-92 111l86 516l129 111h336l74 -88l57 88h131l-94 -504c-13.333 -90 5.66699 -148 57 -174c45.333 -24.667 92.333 -13.667 141 33c65.333 62.667 98.333 161.667 99 297
c0 174.667 -58.833 325.5 -176.5 452.5s-264.5 190.5 -440.5 190.5s-320.333 -63.5 -433 -190.5s-169 -278 -169 -453s56.333 -325.833 169 -452.5s257 -190 433 -190c40.667 0 77.167 1.33301 109.5 4s59 7 80 13s36.667 11 47 15s22.666 10.5 36.999 19.5
s22.166 13.5 23.499 13.5l76 -127c-1.33301 0 -8.5 -3.33301 -21.5 -10l-30.5 -15.5c-7.33301 -3.66699 -20 -8.83398 -38 -15.501s-35.333 -11.667 -52 -15l-62 -13c-24 -4.66699 -50.333 -8 -79 -10s-58.667 -3 -90 -3c-144.667 0 -276.667 35.833 -396 107.5
s-212.5 167.667 -279.5 288s-100.5 250.833 -100.5 391.5zM684.001 202.999l27 -33h223l39 33l65 372l-26 33h-224l-38 -33z" />
    <glyph glyph-name="A" unicode="A" horiz-adv-x="927" 
d="M23 0h227l61 209h305l62 -209h227l-319 1114h-244zM326 328l135 520l119 -451h-174z" />
    <glyph glyph-name="B" unicode="B" 
d="M90 0h653l164 164v291l-98 98l98 98v299l-164 164h-653v-1114zM317 186v291h330l33 -33v-225l-33 -33h-330zM317 598v330h330l33 -33v-199l-33 -32h-264z" />
    <glyph glyph-name="C" unicode="C" horiz-adv-x="997" 
d="M90 164l164 -164h489l164 164v178h-227v-123l-33 -33h-297l-33 33v676l33 33h297l33 -33v-123h227v178l-164 164h-489l-164 -164v-786z" />
    <glyph glyph-name="D" unicode="D" 
d="M90 0h653l164 164v786l-164 164h-653v-1114zM317 121v807h330l33 -33v-676l-33 -33h-264z" />
    <glyph glyph-name="E" unicode="E" horiz-adv-x="858" 
d="M90 0h698v186h-471v293h406v189h-340l-66 -66v326h471v186h-698v-1114z" />
    <glyph glyph-name="F" unicode="F" horiz-adv-x="837" 
d="M90 0h227v477h406v187h-340l-66 -66v322h471v194h-698v-1114z" />
    <glyph glyph-name="G" unicode="G" 
d="M82 164l164 -164h489l164 164v440h-434v-186h207v-199l-33 -33h-297l-33 33v676l33 33h297l33 -33v-123h227v178l-164 164h-489l-164 -164v-786z" />
    <glyph glyph-name="H" unicode="H" horiz-adv-x="997" 
d="M90 0h227v479h363v-479h227v1114h-227v-446h-297l-66 -66v512h-227v-1114z" />
    <glyph glyph-name="I" unicode="I" horiz-adv-x="407" 
d="M90 0h227v1114h-227v-1114z" />
    <glyph glyph-name="J" unicode="J" horiz-adv-x="686" 
d="M90 0h363l163 164v950h-239v-895l-33 -33h-254v-186z" />
    <glyph glyph-name="K" unicode="K" horiz-adv-x="962" 
d="M90 0h227v455h56l301 -455h260l-377 561l377 553h-264l-297 -448h-56v448h-227v-1114z" />
    <glyph glyph-name="L" unicode="L" horiz-adv-x="817" 
d="M90 0h666v186h-373l-66 -65v993h-227v-1114z" />
    <glyph glyph-name="M" unicode="M" horiz-adv-x="1382" 
d="M90 0h227v762l238 -762h272l238 762v-762h227v1114h-315l-287 -903l-284 903h-316v-1114z" />
    <glyph glyph-name="N" unicode="N" horiz-adv-x="1005" 
d="M90 0h227v752l322 -752h276v1114h-227v-752l-321 752h-277v-1114z" />
    <glyph glyph-name="O" unicode="O" 
d="M82 164l164 -164h489l164 164v786l-164 164h-489l-164 -164v-786zM309 219v676l33 33h297l33 -33v-676l-33 -33h-297z" />
    <glyph glyph-name="P" unicode="P" horiz-adv-x="964" 
d="M90 0h227v389h426l164 164v397l-164 164h-653v-1114zM317 510v418h330l33 -33v-287l-33 -33h-264z" />
    <glyph glyph-name="Q" unicode="Q" 
d="M82 164l164 -164h254l172 -186h227v186h-164l164 164v786l-164 164h-489l-164 -164v-786zM309 219v676l33 33h297l33 -33v-676l-33 -33h-297z" />
    <glyph glyph-name="R" unicode="R" 
d="M90 0h227v401h199l172 -401h227l-172 410l164 163v377l-164 164h-653v-1114zM317 524v404h330l33 -33v-272l-33 -33h-264z" />
    <glyph glyph-name="S" unicode="S" horiz-adv-x="964" 
d="M74 164l164 -164h489l164 164v323l-164 164h-360l-66 -65v309l33 33h297l33 -33v-121h227v176l-164 164h-489l-164 -164v-323l164 -164h393l33 -33v-211l-33 -33h-297l-33 33v121h-227v-176z" />
    <glyph glyph-name="T" unicode="T" horiz-adv-x="833" 
d="M41 928h262v-928h227v862l-65 66h328v186h-752v-186z" />
    <glyph glyph-name="U" unicode="U" 
d="M82 164l164 -164h489l164 164v950h-227v-895l-33 -33h-297l-33 33v895h-227v-950z" />
    <glyph glyph-name="V" unicode="V" horiz-adv-x="870" 
d="M16 1114l289 -1114h258l291 1114h-227l-191 -803l-192 803h-228z" />
    <glyph glyph-name="W" unicode="W" horiz-adv-x="1443" 
d="M16 1114h228l182 -803l162 803h282l150 -803l180 803h227l-280 -1114h-258l-168 774l-168 -774h-258z" />
    <glyph glyph-name="X" unicode="X" horiz-adv-x="907" 
d="M45 0h227l183 428l180 -428h227l-237 557l237 557h-227l-180 -440l-183 440h-227l242 -557z" />
    <glyph glyph-name="Y" unicode="Y" horiz-adv-x="907" 
d="M41 1114l295 -741v-373h227v373l303 741h-227l-186 -485l-185 485h-227z" />
    <glyph glyph-name="Z" unicode="Z" horiz-adv-x="878" 
d="M57 0h764v186h-493l493 777v151h-764v-186h494l-494 -776v-152z" />
    <glyph glyph-name="backslash" unicode="\" horiz-adv-x="714" 
d="M135 1296h197l293 -1380h-197z" />
    <glyph glyph-name="underscore" unicode="_" horiz-adv-x="1046" 
d="M29 0h989v-145h-989v145z" />
    <glyph glyph-name="a" unicode="a" horiz-adv-x="911" 
d="M78 131l131 -131h342l86 86l45 -86h147v688l-131 131h-489l-131 -131v-106h227v53l33 33h231l33 -33v-197l-65 66h-328l-131 -131v-242zM305 186v129l33 33h264v-162l-33 -32h-231z" />
    <glyph glyph-name="b" unicode="b" horiz-adv-x="915" 
d="M90 0h162l43 86l88 -86h328l131 131v557l-131 131h-328l-66 -65v360h-227v-1114zM317 186v447l33 33h232l32 -33v-447l-32 -32h-232z" />
    <glyph glyph-name="c" unicode="c" horiz-adv-x="870" 
d="M82 131l131 -131h457l131 131v121h-228v-66l-32 -32h-199l-33 32v447l33 33h199l32 -33v-66h228v121l-131 131h-457l-131 -131v-557z" />
    <glyph glyph-name="d" unicode="d" horiz-adv-x="915" 
d="M74 131l131 -131h327l86 86l46 -86h161v1114h-227v-360l-66 65h-327l-131 -131v-557zM301 186v447l33 33h231l33 -33v-447l-33 -32h-231z" />
    <glyph glyph-name="e" unicode="e" horiz-adv-x="907" 
d="M78 131l131 -131h489l131 131v111h-227v-56l-33 -32h-231l-33 32v199l66 -66h393l65 66v303l-131 131h-489l-131 -131v-557zM305 473v160l33 33h231l33 -33v-160h-297z" />
    <glyph glyph-name="f" unicode="f" horiz-adv-x="649" 
d="M61 674h99v-674h227v674h197v153h-197v101l33 33h196v153h-325l-131 -131v-156h-99v-153z" />
    <glyph glyph-name="g" unicode="g" horiz-adv-x="923" 
d="M82 -78v-86l131 -131h489l132 131v983h-162l-45 -88l-86 88h-328l-131 -131v-557l131 -131h328l65 66v-177l-33 -32h-231l-33 32v33h-227zM309 186v447l33 33h231l33 -33v-447l-33 -32h-231z" />
    <glyph glyph-name="h" unicode="h" horiz-adv-x="923" 
d="M90 0h227v633l33 33h232l32 -33v-633h228v688l-131 131h-328l-66 -65v360h-227v-1114z" />
    <glyph glyph-name="i" unicode="i" horiz-adv-x="407" 
d="M90 0h227v819h-227v-819zM90 903h227v211h-227v-211z" />
    <glyph glyph-name="j" unicode="j" horiz-adv-x="407" 
d="M-41 -141v-154h227l131 131v983h-227v-928l-33 -32h-98zM90 903h227v211h-227v-211z" />
    <glyph glyph-name="k" unicode="k" horiz-adv-x="874" 
d="M90 0h227v319l93 95l204 -414h228l-285 565l252 254h-227l-265 -262v557h-227v-1114z" />
    <glyph glyph-name="l" unicode="l" horiz-adv-x="450" 
d="M82 131l131 -131h195v154h-66l-33 32v1010h-227v-1065z" />
    <glyph glyph-name="m" unicode="m" horiz-adv-x="1382" 
d="M90 0h227v633l33 33h199l33 -33v-633h227v633l33 33h198l33 -33v-633h227v688l-131 131h-295l-88 -88l-43 88h-360l-88 -88l-43 88h-162v-819z" />
    <glyph glyph-name="n" unicode="n" horiz-adv-x="923" 
d="M90 0h227v633l33 33h232l32 -33v-633h228v688l-131 131h-328l-88 -88l-43 88h-162v-819z" />
    <glyph glyph-name="o" unicode="o" horiz-adv-x="899" 
d="M74 131l131 -131h489l131 131v557l-131 131h-489l-131 -131v-557zM301 186v447l33 33h231l33 -33v-447l-33 -32h-231z" />
    <glyph glyph-name="p" unicode="p" horiz-adv-x="915" 
d="M90 -295h227v361l66 -66h328l131 131v557l-131 131h-328l-88 -88l-43 88h-162v-1114zM317 186v447l33 33h232l32 -33v-447l-32 -32h-232z" />
    <glyph glyph-name="q" unicode="q" horiz-adv-x="915" 
d="M74 131l131 -131h327l66 66v-361h227v1114h-161l-46 -88l-86 88h-327l-131 -131v-557zM301 186v447l33 33h231l33 -33v-447l-33 -32h-231z" />
    <glyph glyph-name="r" unicode="r" horiz-adv-x="620" 
d="M90 0h227v633l33 33h230v153h-197l-88 -88l-43 88h-162v-819z" />
    <glyph glyph-name="s" unicode="s" horiz-adv-x="866" 
d="M74 131l131 -131h457l131 131v221l-131 131h-295l-66 -65v215l33 33h198l33 -33v-60h228v115l-131 131h-457l-131 -131v-227l131 -131h327l33 -33v-111l-33 -32h-198l-33 32v56h-227v-111z" />
    <glyph glyph-name="t" unicode="t" horiz-adv-x="595" 
d="M49 666h98v-535l132 -131h282v154h-153l-33 32v480h153v153h-153v197l-228 -41v-156h-98v-153z" />
    <glyph glyph-name="u" unicode="u" horiz-adv-x="923" 
d="M82 131l131 -131h328l86 86l45 -86h162v819h-228v-633l-33 -32h-231l-33 32v633h-227v-688z" />
    <glyph glyph-name="v" unicode="v" horiz-adv-x="784" 
d="M16 819l260 -819h232l260 819h-227l-154 -555l-143 555h-228z" />
    <glyph glyph-name="w" unicode="w" horiz-adv-x="1243" 
d="M16 819l258 -819h234l113 553l114 -553h234l258 819h-228l-153 -553l-103 553h-237l-119 -557l-143 557h-228z" />
    <glyph glyph-name="x" unicode="x" horiz-adv-x="866" 
d="M57 0h228l151 309l146 -309h227l-213 426l213 393h-227l-146 -276l-151 276h-228l215 -393z" />
    <glyph glyph-name="y" unicode="y" horiz-adv-x="784" 
d="M10 819h226l149 -590l150 590h225l-291 -983l-131 -131h-209v145h133l33 33l39 117h-90z" />
    <glyph glyph-name="z" unicode="z" horiz-adv-x="800" 
d="M90 0h621v154h-381l381 536v129h-621v-153h381l-381 -537v-129z" />
    <glyph glyph-name="uni00A0" unicode="&#xa0;" horiz-adv-x="303" 
 />
    <glyph glyph-name="ordfeminine" unicode="&#xaa;" horiz-adv-x="911" 
d="M78 131l131 -131h342l86 86l45 -86h147v688l-131 131h-489l-131 -131v-106h227v53l33 33h231l33 -33v-197l-65 66h-328l-131 -131v-242zM305 186v129l33 33h264v-162l-33 -32h-231z" />
    <glyph glyph-name="registered" unicode="&#xae;" horiz-adv-x="505" 
d="M61 926c0 54.667 18.5 100 55.5 136s82.167 54 135.5 54c54.667 0 100.334 -18 137.001 -54s55 -81.333 55 -136s-18.333 -100.167 -55 -136.5s-82.334 -54.5 -137.001 -54.5c-53.333 0 -98.5 18.167 -135.5 54.5s-55.5 81.833 -55.5 136.5zM102 925.5
c0 -42.333 14.6689 -78.166 44.002 -107.499s64.666 -44 105.999 -44c42 0 77.667 14.667 107 44s44 65.166 44 107.499s-14.667 78.166 -44 107.499s-65 44 -107 44c-40.667 0 -75.834 -14.667 -105.501 -44s-44.5 -65.166 -44.5 -107.499zM182.002 819h31v70h57l29 -70h33
l-29 72l29 29v84l-29 32h-121v-217zM213.002 913v93h72l16 -21v-45l-18 -16h-54z" />
    <glyph glyph-name="uni00B2" unicode="&#xb2;" horiz-adv-x="956" 
d="M70 0h817v186h-590v88l590 388v288l-164 164h-490l-163 -164v-153h227v98l33 33h297l32 -33v-141l-589 -385v-369z" />
    <glyph glyph-name="uni00B3" unicode="&#xb3;" horiz-adv-x="944" 
d="M53 164l164 -164h490l163 164v274l-98 99l98 98v315l-163 164h-490l-164 -164v-145h228v90l32 33h297l33 -33v-215l-33 -33h-274v-188h274l33 -33v-207l-33 -33h-297l-32 33v90h-228v-145z" />
    <glyph glyph-name="uni00B9" unicode="&#xb9;" horiz-adv-x="489" 
d="M74 858h102v-858h223v1112h-223l-102 -102v-152z" />
    <glyph glyph-name="ordmasculine" unicode="&#xba;" horiz-adv-x="899" 
d="M74 131l131 -131h489l131 131v557l-131 131h-489l-131 -131v-557zM301 186v447l33 33h231l33 -33v-447l-33 -32h-231z" />
    <glyph glyph-name="OE" unicode="&#x152;" horiz-adv-x="1839" 
d="M1071 0h698v186h-471v293h406v189h-340l-66 -66v326h471v186h-698v-1114zM82 164l164 -164h489l164 164v786l-164 164h-489l-164 -164v-786zM309 219v676l33 33h297l33 -33v-676l-33 -33h-297z" />
    <glyph glyph-name="oe" unicode="&#x153;" horiz-adv-x="1806" 
d="M977 131l131 -131h489l131 131v111h-227v-56l-33 -32h-231l-33 32v199l66 -66h393l65 66v303l-131 131h-489l-131 -131v-557zM1204 473v160l33 33h231l33 -33v-160h-297zM74 131l131 -131h489l131 131v557l-131 131h-489l-131 -131v-557zM301 186v447l33 33h231l33 -33
v-447l-33 -32h-231z" />
    <glyph glyph-name="uni2000" unicode="&#x2000;" horiz-adv-x="671" 
 />
    <glyph glyph-name="uni2001" unicode="&#x2001;" horiz-adv-x="1343" 
 />
    <glyph glyph-name="uni2002" unicode="&#x2002;" horiz-adv-x="671" 
 />
    <glyph glyph-name="uni2003" unicode="&#x2003;" horiz-adv-x="1343" 
 />
    <glyph glyph-name="uni2004" unicode="&#x2004;" horiz-adv-x="446" 
 />
    <glyph glyph-name="uni2005" unicode="&#x2005;" horiz-adv-x="335" 
 />
    <glyph glyph-name="uni2006" unicode="&#x2006;" horiz-adv-x="223" 
 />
    <glyph glyph-name="uni2007" unicode="&#x2007;" horiz-adv-x="223" 
 />
    <glyph glyph-name="uni2008" unicode="&#x2008;" horiz-adv-x="167" 
 />
    <glyph glyph-name="uni2009" unicode="&#x2009;" horiz-adv-x="268" 
 />
    <glyph glyph-name="uni200A" unicode="&#x200a;" horiz-adv-x="73" 
 />
    <glyph glyph-name="endash" unicode="&#x2013;" horiz-adv-x="1024" 
d="M205 512v205h614v-205h-614z" />
    <glyph glyph-name="emdash" unicode="&#x2014;" horiz-adv-x="2048" 
d="M205 512v205h1638v-205h-1638z" />
    <glyph glyph-name="quoteright" unicode="&#x2019;" horiz-adv-x="391" 
d="M90 1114l21 -328h170l20 328h-211z" />
    <glyph glyph-name="quotedblleft" unicode="&#x201c;" horiz-adv-x="636" 
d="M90 1114l21 -328h170l20 328h-211zM334 1114l20 -328h172l21 328h-213z" />
    <glyph glyph-name="quotedblright" unicode="&#x201d;" horiz-adv-x="636" 
d="M90 1114l21 -328h170l20 328h-211zM334 1114l20 -328h172l21 328h-213z" />
    <glyph glyph-name="ellipsis" unicode="&#x2026;" horiz-adv-x="1222" 
d="M905 0h227v178h-227v-178zM498 0h227v178h-227v-178zM90 0h227v178h-227v-178z" />
    <glyph glyph-name="uni202F" unicode="&#x202f;" horiz-adv-x="268" 
 />
    <glyph glyph-name="guilsinglleft" unicode="&#x2039;" horiz-adv-x="641" 
d="M45 557l324 -557h227l-324 557l324 557h-227z" />
    <glyph glyph-name="guilsinglright" unicode="&#x203a;" horiz-adv-x="641" 
d="M45 0h227l324 557l-324 557h-227l324 -557z" />
    <glyph glyph-name="uni205F" unicode="&#x205f;" horiz-adv-x="335" 
 />
    <glyph glyph-name="trademark" unicode="&#x2122;" horiz-adv-x="651" 
d="M49 1071h68v-231h55v217l-18 14h84v43h-189v-43zM276 840h54v194l63 -194h62l67 194v-194h56v274h-80l-72 -221l-74 221h-76v-274z" />
    <glyph glyph-name="uniE000" unicode="&#xe000;" horiz-adv-x="820" 
d="M0 820h820v-820h-820v820z" />
    <glyph glyph-name="uniFB01" unicode="&#xfb01;" horiz-adv-x="1056" 
d="M739 0h227v819h-227v-819zM739 903h227v211h-227v-211zM61 674h99v-674h227v674h197v153h-197v101l33 33h196v153h-325l-131 -131v-156h-99v-153z" />
    <glyph glyph-name="uniFB02" unicode="&#xfb02;" horiz-adv-x="1099" 
d="M731 131l131 -131h195v154h-66l-33 32v1010h-227v-1065zM61 674h99v-674h227v674h197v153h-197v101l33 33h196v153h-325l-131 -131v-156h-99v-153z" />
    <glyph glyph-name="uniFB03" unicode="&#xfb03;" horiz-adv-x="1705" 
d="M1388 0h227v819h-227v-819zM1388 903h227v211h-227v-211zM710 674h99v-674h227v674h197v153h-197v101l33 33h196v153h-325l-131 -131v-156h-99v-153zM61 674h99v-674h227v674h197v153h-197v101l33 33h196v153h-325l-131 -131v-156h-99v-153z" />
    <glyph glyph-name="uniFB04" unicode="&#xfb04;" horiz-adv-x="1748" 
d="M1380 131l131 -131h195v154h-66l-33 32v1010h-227v-1065zM710 674h99v-674h227v674h197v153h-197v101l33 33h196v153h-325l-131 -131v-156h-99v-153zM61 674h99v-674h227v674h197v153h-197v101l33 33h196v153h-325l-131 -131v-156h-99v-153z" />
    <glyph glyph-name=".null" horiz-adv-x="0" 
 />
    <glyph glyph-name="nonmarkingreturn" horiz-adv-x="682" 
 />
    </font>
</defs>
</svg>
